<?xml version="1.0" standalone="no"?>
<!DOCTYPE svg PUBLIC "-//W3C//DTD SVG 1.1//EN" "http://www.w3.org/Graphics/SVG/1.1/DTD/svg11.dtd" >
<svg xmlns="http://www.w3.org/2000/svg">
<metadata>Generated by IcoMoon</metadata>
<defs>
<font id="icomoon" horiz-adv-x="1024">
<font-face units-per-em="1024" ascent="960" descent="-64" />
<missing-glyph horiz-adv-x="1024" />
<glyph unicode="&#x20;" horiz-adv-x="512" d="" />
<glyph unicode="&#xe900;" glyph-name="facebook" d="M555.116 453.389v-269.474c-9.432-4.042-103.747-2.695-128-2.695v266.779l-63.326 2.695v94.316h61.979c0 5.389 0 10.779 0 14.821 0 24.253 0 49.853 1.347 74.105 2.695 43.116 30.989 71.411 78.147 80.842 20.211 4.042 40.421 6.737 60.632 6.737 22.905 0 45.811 0 68.716-1.347 4.042 0 6.737 0 10.779 0v-99.705h-6.737c-22.905 0-45.811 0-68.716 0-10.779 0-16.168-4.042-16.168-13.474-1.347-20.211 0-41.768 0-61.979h94.316l-9.432-92.968-83.537 1.347z" />
<glyph unicode="&#xe901;" d="M507.958-43.789c-272.168 0-491.789 220.968-491.789 491.789v0c0 272.168 220.968 491.789 493.137 491.789v0c272.168 0 491.789-220.968 491.789-493.137 0-269.474-220.968-490.442-493.137-490.442z" />
<glyph unicode="&#xe902;" d="M507.958 156.968c-28.295 0-56.589 0-84.884 0-25.6 0-52.547 1.347-78.147 6.737-44.463 8.084-82.189 35.032-105.095 72.758-12.126 21.558-20.211 47.158-21.558 71.411-4.042 40.421-2.695 79.495-4.042 119.916 0 39.074 0 76.8 1.347 115.874 0 25.6 2.695 52.547 8.084 78.147 10.779 45.811 41.768 84.884 86.232 103.747 25.6 10.779 52.547 16.168 80.842 16.168 71.411 2.695 141.474 1.347 212.884 1.347 25.6 0 51.2-2.695 76.8-8.084 64.674-17.516 103.747-60.632 115.874-126.653 4.042-21.558 5.389-44.463 5.389-66.021 0-61.979 0-122.611 0-184.589 0-24.253-1.347-49.853-6.737-74.105-12.126-61.979-60.632-110.484-122.611-119.916-25.6-4.042-51.2-6.737-76.8-6.737-30.989 0-59.284 0-87.579 0z" />
<glyph unicode="&#xe903;" d="M257.347 449.347c0 41.768 0 84.884 1.347 126.653 0 17.516 4.042 36.379 10.779 52.547 12.126 32.337 41.768 56.589 75.453 63.326 17.516 4.042 35.032 5.389 53.895 5.389 44.463 1.347 90.274 1.347 134.737 1.347 33.684 0 67.368 0 101.053-1.347 21.558 0 44.463-5.389 63.326-14.821 28.295-14.821 47.158-41.768 52.547-71.411 4.042-17.516 5.389-36.379 5.389-53.895 1.347-71.411 1.347-142.821 0-214.232 0-20.211-1.347-40.421-6.737-59.284-9.432-41.768-44.463-72.758-86.232-78.147-21.558-4.042-44.463-5.389-67.368-5.389-66.021-1.347-130.695-1.347-196.716 0-21.558 0-41.768 2.695-63.326 8.084-39.074 10.779-68.716 43.116-75.453 84.884-4.042 29.642-6.737 60.632-5.389 90.274 2.695 21.558 2.695 44.463 2.695 66.021z" />
<glyph unicode="&#xe904;" d="M507.958 605.642c86.232 0 156.295-70.063 156.295-156.295v-1.347c-1.347-86.232-71.411-156.295-157.642-154.947s-156.295 71.411-154.947 157.642c0 0 0 0 0 1.347 1.347 84.884 70.063 154.947 156.295 153.6z" />
<glyph unicode="&#xe905;" d="M507.958 551.747c56.589 0 102.4-45.811 102.4-102.4v0c0-56.589-45.811-102.4-101.053-102.4v0c-56.589 0-102.4 45.811-102.4 102.4-1.347 56.589 44.463 102.4 101.053 102.4z" />
<glyph unicode="&#xe906;" d="M665.6 571.958c-20.211 0-36.379 17.516-36.379 37.726v0c0 20.211 17.516 36.379 37.726 35.032 20.211 0 35.032-17.516 35.032-36.379 1.347-20.211-16.168-36.379-36.379-36.379v0z" />
<glyph unicode="&#xe907;" glyph-name="icon" d="M547.409 449.347c0-108.643-88.073-196.716-196.716-196.716s-196.716 88.073-196.716 196.716c0 108.643 88.073 196.716 196.716 196.716s196.716-88.073 196.716-196.716zM765.683 449.347c0-101.946-42.83-184.589-95.663-184.589s-95.663 82.644-95.663 184.589c0 101.946 42.83 184.589 95.663 184.589s95.663-82.644 95.663-184.589zM829.009 615.074c18.863 0 33.684-74.105 33.684-167.074 0-91.621-14.821-167.074-33.684-167.074s-33.684 74.105-33.684 167.074c0 91.621 16.168 167.074 33.684 167.074z" />
<glyph unicode="&#xe908;" glyph-name="intransit" d="M548.141-3.765v439.718l373.459 192.753v-427.671l-373.459-204.8zM120.471 640.753l367.435-204.8v-433.694l-367.435 210.824v427.671zM518.024 484.141l-367.435 204.8 168.659 90.353 355.388-216.847-156.612-78.306zM885.459 676.894l-150.588-78.306-361.412 216.847 138.541 78.306 373.459-216.847zM975.812 688.941l-457.788 271.059-457.788-252.988v-524.047l457.788-271.059 457.788 252.988v524.047z" />
<glyph unicode="&#xe909;" glyph-name="card" d="M57.224 170.918v283.106h897.506v-283.106h-897.506zM957.741 740.141v-114.447h-900.518v114.447h900.518zM3.012 794.353v-677.647h1008.941v677.647h-1008.941zM147.576 312.471h289.129v-51.2h-289.129v51.2z" />
<glyph unicode="&#xe90a;" glyph-name="percent" d="M318.171 919.771c-21.943 0-40.229-3.657-58.514-14.629-73.143-40.229-73.143-157.257-113.371-230.4-40.229-69.486-138.971-128-138.971-215.771s98.743-146.286 138.971-215.771c40.229-73.143 43.886-190.171 113.371-230.4 18.286-10.971 36.571-14.629 58.514-14.629 58.514 0 131.657 29.257 193.829 29.257s131.657-29.257 193.829-29.257c21.943 0 40.229 3.657 58.514 14.629 69.486 40.229 73.143 157.257 113.371 230.4 40.229 69.486 138.971 128 138.971 215.771s-98.743 146.286-138.971 215.771c-40.229 73.143-43.886 190.171-113.371 230.4-18.286 10.971-36.571 14.629-58.514 14.629-58.514 0-131.657-29.257-193.829-29.257s-131.657 29.257-193.829 29.257zM318.171 864.914c21.943 0 51.2-7.314 84.114-14.629 36.571-7.314 73.143-18.286 109.714-18.286s73.143 7.314 109.714 18.286c29.257 7.314 58.514 14.629 84.114 14.629 14.629 0 25.6-3.657 32.914-7.314 25.6-14.629 40.229-58.514 54.857-106.057 10.971-36.571 21.943-69.486 40.229-102.4 18.286-29.257 43.886-58.514 65.829-84.114 32.914-36.571 65.829-69.486 65.829-102.4s-32.914-65.829-65.829-102.4c-25.6-25.6-47.543-51.2-65.829-84.114s-29.257-69.486-40.229-102.4c-14.629-47.543-29.257-91.429-54.857-106.057-7.314-3.657-18.286-7.314-32.914-7.314-21.943 0-51.2 7.314-84.114 14.629-36.571 7.314-73.143 18.286-109.714 18.286s-73.143-7.314-109.714-18.286c-29.257-7.314-58.514-14.629-84.114-14.629-14.629 0-25.6 3.657-32.914 7.314-25.6 14.629-40.229 58.514-54.857 106.057-10.971 36.571-21.943 69.486-40.229 102.4-18.286 29.257-43.886 58.514-65.829 84.114-32.914 36.571-65.829 69.486-65.829 102.4s32.914 65.829 65.829 102.4c25.6 25.6 47.543 51.2 65.829 84.114s29.257 69.486 40.229 102.4c14.629 47.543 29.257 91.429 54.857 106.057 7.314 3.657 18.286 7.314 32.914 7.314zM566.857 352.914c0-21.943 10.971-40.229 36.571-40.229 21.943 0 36.571 14.629 36.571 40.229v14.629c0 25.6-10.971 40.229-36.571 40.229s-36.571-14.629-36.571-40.229v-14.629zM614.4 645.486l47.543-32.914-102.4-117.029-29.257 21.943 84.114 128zM603.429 448c51.2 0 84.114-29.257 84.114-80.457v-10.971c0-51.2-29.257-80.457-84.114-80.457-51.2 0-84.114 29.257-84.114 80.457v10.971c0 47.543 29.257 80.457 84.114 80.457zM387.657 554.057c0-21.943 10.971-40.229 36.571-40.229s36.571 14.629 36.571 40.229v10.971c0 25.6-10.971 40.229-36.571 40.229-21.943 0-36.571-14.629-36.571-40.229v-10.971zM405.943 276.114l-43.886 32.914 102.4 117.029 29.257-21.943-87.771-128zM420.571 645.486c51.2 0 84.114-29.257 84.114-80.457v-10.971c0-51.2-29.257-80.457-84.114-80.457-51.2 0-84.114 29.257-84.114 80.457v10.971c3.657 51.2 32.914 80.457 84.114 80.457z" />
<glyph unicode="&#xe90b;" glyph-name="search" horiz-adv-x="1028" d="M69.735 493.878c0 223.885 179.842 403.728 403.728 403.728s403.728-179.842 403.728-403.728c0-223.885-179.842-403.728-403.728-403.728s-403.728 179.842-403.728 403.728zM1027.67-19.957l-201.864 205.534c73.405 80.746 113.778 190.853 113.778 308.301 0 256.918-209.204 466.122-466.122 466.122s-466.122-209.204-466.122-466.122 209.204-466.122 466.122-466.122c117.448 0 223.885 44.043 308.301 113.778l201.864-205.534 44.043 44.043z" />
<glyph unicode="&#xe90c;" glyph-name="start" d="M512 149.835l316.235-192.753-84.329 364.424 277.082 246.965-367.435 30.118-141.553 346.353-144.565-346.353-367.435-30.118 280.094-246.965-84.329-364.424z" />
<glyph unicode="&#xe90d;" glyph-name="logo_black" horiz-adv-x="2072" d="M288.147 643.351c-0.12 1.469-0.189 3.18-0.189 4.906 0 35.252 28.578 63.83 63.83 63.83 2.602 0 5.168-0.156 7.688-0.458l-0.304 0.030c1.886 0.153 4.083 0.241 6.3 0.241 45.622 0 82.606-36.984 82.606-82.606 0-1.78-0.056-3.546-0.167-5.297l0.012 0.239h290.864c-9.542 191.182-154.403 299.048-375.508 299.048-203.472 0-360.531-101.041-360.531-289.475-4.076-334.591 462.962-262.207 464.29-416.486 0-45.086-36.841-69.667-84.644-69.667-49.162 0-91.499 24.704-96.934 96.965h-285.398c10.901-206.19 177.502-308.651 391.875-308.651 228.053 0 359.141 132.478 359.141 301.796-0.031 308.651-462.931 262.207-462.931 405.586zM1010.536 960c-104.037 0-170.893-61.452-170.893-139.271 0-76.46 66.887-136.554 170.893-136.554 102.554 0 169.442 60.094 169.442 136.554 0 77.819-66.856 139.271-169.442 139.271zM1142.983 678.771v-733.198h-267.642v734.68c36.046-30.773 83.188-49.497 134.703-49.497 50.705 0 97.173 18.14 133.27 48.283l-0.331-0.269zM1802.592 956.109v-244.636c0.001-72.685 18.374-141.079 50.73-200.791l-1.105 2.229 12.352-23.037-77.201 0.247c-5.497 41.411-5.775 106.878-43.233 152.519-38.868 47.592-97.319 77.921-162.875 78.59l-0.113 0.001h-0.988c-183.029 0-327.736-147.455-327.736-391.905s144.737-393.264 326.346-393.264c107.897 0 184.357 47.803 223.977 116.080v-106.476h269.032v1010.505zM1664.679 169.55c-76.491 0-139.271 57.345-139.271 159.745 0 103.79 62.78 158.417 139.271 158.417 75.102 0 139.271-55.986 139.271-158.417 0-103.759-64.201-159.745-139.302-159.745z" />
<glyph unicode="&#xe90e;" glyph-name="arrow_back" d="M512 149.835l316.235-192.753-84.329 364.424 277.082 246.965-367.435 30.118-141.553 346.353-144.565-346.353-367.435-30.118 280.094-246.965-84.329-364.424z" />
<glyph unicode="&#xe90f;" glyph-name="arrow_right" d="M274.432-51.712l-49.152 57.344 479.232 434.176-479.232 438.272 49.152 53.248 540.672-491.52z" />
<glyph unicode="&#xe910;" glyph-name="beg" d="M687.037 744.165v25.6c0 47.158-18.863 92.968-52.547 123.958s-80.842 49.853-126.653 49.853c-99.705 2.695-180.547-75.453-180.547-173.811v-24.253h-226.358v-788.211h819.2v786.863h-233.095zM377.142 769.765c2.695 68.716 59.284 121.263 130.695 121.263 33.684 0 68.716-12.126 92.968-37.726 24.253-21.558 37.726-52.547 37.726-83.537v-24.253h-258.695l-2.695 24.253zM864.889 12.544h-711.411v676.379h710.063l1.347-676.379z" />
<glyph unicode="&#xe911;" glyph-name="down_arrow" d="M542.084 8.214h-66.021l-0.002 952.589h66.021l0.002-952.589zM84.008 409.398l44.463 44.463 382.653-421.726 384 420.379 49.853-44.463-432.505-471.579-428.463 472.926z" />
<glyph unicode="&#xe912;" glyph-name="user" d="M512.957 956.793c-282.947 0-512-229.053-512-512s229.053-512 512-512c282.947 0 512 229.053 512 512v0c-4.042 282.947-229.053 512-512 512zM60.241 444.793c0 249.263 202.105 451.368 451.368 451.368s451.368-202.105 451.368-451.368c0-101.053-33.684-195.368-94.316-276.211-132.042 199.411-394.779 253.305-592.842 125.305-49.853-35.032-90.274-75.453-123.958-125.305-60.632 80.842-91.621 177.853-91.621 276.211zM492.746-6.575v0c-10.779 0-17.516 0-24.253 0h-4.042c-6.737 0-13.474 0-20.211 4.042h-2.695c-6.737 0-13.474 4.042-20.211 4.042h-4.042c-6.737 0-13.474 4.042-20.211 4.042v0c-6.737 0-13.474 4.042-20.211 6.737h-2.695c-6.737 4.042-13.474 4.042-17.516 6.737h-4.042c-6.737 4.042-10.779 4.042-17.516 6.737h-1.347c-6.737 4.042-10.779 4.042-17.516 6.737h-4.042c-6.737 4.042-13.474 6.737-17.516 10.779v0c-6.737 4.042-10.779 6.737-17.516 10.779h-4.042c-6.737 4.042-10.779 6.737-17.516 10.779l-4.042 4.042c-6.737 4.042-10.779 6.737-17.516 10.779l-4.042 4.042c-6.737 4.042-10.779 6.737-17.516 10.779l-4.042 4.042c-6.737 4.042-10.779 10.779-17.516 13.474v0c-4.042 4.042-10.779 10.779-13.474 13.474v0c105.095 175.158 330.105 233.095 505.263 128 53.895-30.989 98.358-74.105 128-128v0c-4.042-4.042-10.779-10.779-13.474-13.474v0c-4.042-4.042-10.779-10.779-17.516-13.474l-4.042-4.042c-4.042-4.042-10.779-6.737-17.516-10.779l6.737-9.432c-6.737-4.042-10.779-6.737-17.516-10.779l-4.042-4.042c-6.737-4.042-10.779-6.737-17.516-10.779h-1.347c-6.737-4.042-10.779-6.737-17.516-10.779v0c-6.737-4.042-13.474-6.737-17.516-10.779h-4.042c-6.737-4.042-10.779-6.737-17.516-6.737h-4.042c-6.737-4.042-10.779-4.042-17.516-6.737h-4.042c-6.737-4.042-13.474-4.042-17.516-6.737h-4.042c-6.737-4.042-13.474-4.042-20.211-6.737v0c-6.737 0-13.474-4.042-20.211-4.042h-4.042c-6.737 0-13.474-4.042-20.211-4.042h-4.042c-6.737 0-13.474-4.042-20.211-4.042h4.042c-6.737 0-13.474 0-20.211 0h-4.042c-5.389 5.389-12.126 5.389-18.863 5.389s6.737 0 0 0v0zM512.957 413.804c105.095 0 188.632 84.884 188.632 188.632s-84.884 188.632-188.632 188.632-188.632-84.884-188.632-188.632v0c-4.042-103.747 83.537-188.632 188.632-188.632zM512.957 734.477c71.411 0 132.042-57.937 132.042-132.042s-57.937-132.042-132.042-132.042c-71.411 0-132.042 57.937-132.042 132.042s56.589 132.042 132.042 132.042z" />
<glyph unicode="&#xe913;" glyph-name="question" d="M514.304 885.167c243.874 0 444.632-198.063 444.632-444.632 0-243.874-198.063-444.632-444.632-444.632-243.874 0-444.632 198.063-444.632 444.632v0c0 246.568 200.758 444.632 444.632 444.632zM514.304 944.451c-276.211 0-501.221-223.663-501.221-501.221s223.663-501.221 501.221-501.221 501.221 223.663 501.221 501.221-225.011 501.221-501.221 501.221v0zM518.669 730.57c115.874 0 191.326-66.021 191.326-152.253v-6.737c0-82.189-45.811-122.611-122.611-154.947l-22.905-9.432c-20.211-6.737-29.642-26.947-26.947-45.811v-45.811h-66.021v48.505c-6.737 43.116 16.168 82.189 59.284 95.663l22.905 9.432c61.979 26.947 88.926 52.547 88.926 105.095 0 59.284-52.547 95.663-125.305 95.663s-132.042-36.379-132.042-111.832v-29.642h-66.021v32.337c1.347 106.442 80.842 169.768 199.411 169.768zM505.196 263.033c29.642 0 52.547-26.947 52.547-56.589s-26.947-52.547-56.589-52.547c-29.642 0-52.547 26.947-52.547 56.589s26.947 52.547 56.589 52.547v0 0z" />
<glyph unicode="&#xe914;" glyph-name="right_arrow" d="M2.425 486.643h937.768v-64.674h-937.768v64.674zM542.451 33.011l-43.116 43.116 414.989 377.263-414.989 377.263 43.116 48.505 463.495-425.768-463.495-420.379z" />
<glyph unicode="&#xe915;" glyph-name="menu" d="M0 843.636h1024v-74.473h-1024v74.473zM1024.084 41.519l-1024-2.048-0.149 74.473 1024 2.048 0.149-74.473zM0 475.927h1024v-74.473h-1024v74.473z" />
<glyph unicode="&#xe916;" glyph-name="close" d="M512 960c-282.77 0-512-229.23-512-512s229.23-512 512-512c282.77 0 512 229.23 512 512v0c0 282.77-229.23 512-512 512v0zM512-5.154c-250.27 0-453.154 202.884-453.154 453.154s202.884 453.154 453.154 453.154c250.27 0 453.154-202.884 453.154-453.154v0c-0.291-250.153-203.001-452.863-453.126-453.154h-0.029zM756.548 653.807l-41.318 41.233-204.459-204.902-208.862 207.94-41.182-41.37 208.811-207.906-207.889-208.333 41.318-41.233 207.923 208.384 207.36-206.507 41.182 41.37-207.326 206.421z" />
<glyph unicode="&#xe917;" glyph-name="next_arrow" d="M0 477.787h959.784v-65.217h-959.784v65.217zM556.942 11.093l-45.17 47.787 422.593 386.253-422.593 387.482 45.17 47.787 474.658-435.246z" />
<glyph unicode="&#xe918;" glyph-name="back_arrow" d="M71.839 477.764h959.784v-65.217h-959.784v65.217zM474.658 11.093l45.193 47.787-422.593 386.253 422.593 387.482-45.193 47.787-474.658-435.246z" />
<glyph unicode="&#xe919;" glyph-name="play" d="M512.011 901.14c250.268 0 453.151-202.883 453.151-453.151s-202.883-453.151-453.151-453.151c-250.268 0-453.151 202.883-453.151 453.151v0c0.291 250.151 202.999 452.859 453.122 453.151h0.029zM512.011 960c-282.776 0-512.011-229.235-512.011-512.011s229.235-512.011 512.011-512.011c282.776 0 512.011 229.235 512.011 512.011v0c0 282.776-229.235 512.011-512.011 512.011v0zM374.877 689.168l1.493-482.335 324.551 241.242z" />
<glyph unicode="&#xe91a;" d="M508.295-45.137c-273.516 0-494.484 222.316-494.484 494.484 0 273.516 222.316 494.484 495.832 494.484 0 0 0 0 0 0 273.516 0 494.484-222.316 494.484-495.832-1.347-272.168-222.316-493.137-495.832-493.137z" />
<glyph unicode="&#xe91b;" d="M509.642 255.326c-59.284 0-117.221 1.347-176.505 5.389-10.779 1.347-21.558 1.347-30.989 4.042-33.684 4.042-59.284 30.989-61.979 64.674-8.084 49.853-9.432 101.053-8.084 150.905 0 32.337 4.042 64.674 9.432 95.663s30.989 55.242 63.326 57.937c49.853 5.389 101.053 8.084 150.905 8.084 74.105 1.347 149.558 0 223.663-5.389 12.126-1.347 22.905-2.695 35.032-4.042 37.726-6.737 56.589-26.947 63.326-66.021 6.737-48.505 9.432-98.358 8.084-148.211 0-32.337-4.042-64.674-9.432-95.663s-30.989-55.242-63.326-57.937c-59.284-6.737-117.221-9.432-176.505-8.084-9.432-1.347-18.863-1.347-26.947-1.347z" />
<glyph unicode="&#xe91c;" d="M609.347 449.347l-168.421-97.011v194.021l168.421-97.011z" />
</font>
</defs>
</svg>
